Франция германия футбол 2016


зеркало rutor.info :: Футбол. Чемпионат Европы 2016. 1/2 финала. Германия - Франция [Футбол 1 HD] [07.07] (2016) HDTVRip 720p

Чемпионат Европы 2016 1/2 финалаГермания - ФранцияВид спорта: ФутболУчастники: Германия - ФранцияКомментарий: Русский

Описание: 07 июля 2016, четверг. 22:00 МСК 1/2 финала Стадион: Велодром (Марсель, Франция) , 64 078 зрителей (95 % при вместимости 67 394) Главный судья: Никола Риццоли (Болонья, Италия) Ассистент: Эленито Ди Либераторе (Италия) Ассистент: Мауро Тонолини (Италия) Резервный: Дамир Скомина (Копер, Словения)

Автор записи: Mr. Drax

Качество: HDTVRipФормат видео: MKVВидео: H.264, 1280x720, 25 fps, 3000 KbpsАудио: AC3, 48.0 KHz, 2 ch stereo, 192 kbps

Продолжительность

01:49:57

Составы команд

Media Info

Полное имя : H:FootballEURO 2016Euro 2016.1-2 finals.Germany - France.07.07.2016.HDTVRip720p.mkv Формат : Matroska Версия формата : Version 4 / Version 2 Размер файла : 2,46 Гбайт Продолжительность : 1 ч. 49 м. Общий поток : 3201 Кбит/сек Программа кодирования : Lavf56.0.100 Библиотека кодирования : Lavf56.0.100

Видео Идентификатор : 1 Формат : AVC Формат/Информация : Advanced Video Codec Профиль формата : [email protected] Параметр CABAC формата : Да Параметр ReFrames формата : 4 кадра Идентификатор кодека : V_MPEG4/ISO/AVC Продолжительность : 1 ч. 49 м. Битрейт : 3000 Кбит/сек Ширина : 1280 пикселей Высота : 720 пикселей Соотношение сторон : 16:9 Режим частоты кадров : Постоянный Частота кадров : 25,000 кадров/сек Цветовое пространство : YUV Субдискретизация насыщенности : 4:2:0 Битовая глубина : 8 бит Тип развёртки : Прогрессивная Бит/(Пиксели*Кадры) : 0.130 Размер потока : 2,26 Гбайт (92%) Библиотека кодирования : x264 core 142 r2453 ea0ca51 Настройки программы : cabac=1 / ref=3 / deblock=1:0:0 / analyse=0x3:0x113 / me=hex / subme=7 / psy=1 / psy_rd=1.00:0.00 / mixed_ref=1 / me_range=16 / chroma_me=1 / trellis=1 / 8x8dct=1 / cqm=0 / deadzone=21,11 / fast_pskip=1 / chroma_qp_offset=-2 / threads=12 / lookahead_threads=2 / sliced_threads=0 / nr=0 / decimate=1 / interlaced=0 / bluray_compat=0 / constrained_intra=0 / bframes=3 / b_pyramid=2 / b_adapt=1 / b_bias=0 / direct=1 / weightb=1 / open_gop=0 / weightp=2 / keyint=250 / keyint_min=25 / scenecut=40 / intra_refresh=0 / rc_lookahead=40 / rc=abr / mbtree=1 / bitrate=3000 / ratetol=1.0 / qcomp=0.60 / qpmin=0 / qpmax=69 / qpstep=4 / ip_ratio=1.40 / aq=1:1.00 Default : Да Forced : Нет

Аудио Идентификатор : 2 Формат : AC-3 Формат/Информация : Audio Coding 3 Расширение режима : CM (complete main) Параметр Endianness формата : Big Идентификатор кодека : A_AC3 Продолжительность : 1 ч. 49 м. Вид битрейта : Постоянный Битрейт : 192 Кбит/сек Каналы : 2 канала Расположение каналов : Front: L R Частота : 48,0 КГц Битовая глубина : 32 бит Метод сжатия : С потерями Задержка видео : -957 мс. Размер потока : 151 Мбайт (6%) Библиотека кодирования : Lavc56.0.100 ac3 Язык : Russian Default : Да Forced : Нет

rutor.info

Германия Франция - Смотреть онлайн матч 07.07.2016 - Евро 2016 Германия Франция онлайн трансляция

Сборные Германии и Франции определили второго финалиста Евро-2016.

ONLINE.UA вел онлайн-трансляцию с Марселя.

ЕВРО-2016

1/2 финала

Марсель. "Велодром"

Главный арбитр: Никола Риццоли (Италия)

0:1 Антуан Гризманн, 45+2' — пенальти

0:2 Антуан Гризманн, 72'

Германия: Нойер — Киммих, Боатенг (Мустафи, 61'), Хеведес, Хектор — Кроос, Швайнштайгер (Лерой Сане, 79') — Дракслер, Озил, Эмре Джан (Гетце, 67') -Мюллер

Франция: Льорис — Эвра, Юмтити, Кошельны, Санья — Матюйди, Погба — Пайе (Канте, 71'), Гризманн (Кабай, 90+2'), Сиссоко — Жиру (Жиньяк, 78')

______________________________________________________________

0:10. игрок матча — Антуан Гризманн (фото — uefa.com)

0:06. 10 июля Франция сразится за Кубок Европы с Португалией

90+5 мин. ВСЕ! Франция сразится за Кубок Европы, а Германия остановилась в двух шагах от победы

90+3 мин. Гетце головой сбрасывает под удар Сане, но тот не успевает к мячу

90+2 мин. Льорис делает сумасшедший сейв после удара Киммиха головой

90+2 мин. Гризманна меняет Кабай

90 мин. четыре минуты компенсировал Риццоли

88 мин. издали пробил Жиньяк — Нойер ловит

87 мин. в контратаке Гризманн вырывался один на один. Но Хеведес его догнал. Антуан бьет из-под защитника — в руки Нойеру

86 мин. все меньше шансов у Бундестима. Нет, чудеса в футболе бывают, но уж очень надежно обороняется Бундестим

82 мин. уххх! Кроос со штрафного вырезал мяч на ближнюю стойку. Хеведес пробил головой — мяч просвистел над перекладиной

79 мин. супермомент упускает Киммих. Защитник спокойно принял мяч в чужой штрафной, но пробил слету на трибуны

79 мин. Лерой Сане сменил Швайнштайгера

78 мин. вместо Жиру вышел Жиньяк

76 мин. опасный удар со штрафного с 30-ти метров выполнил Дракслер. Мяч прошел рядом с правой стойкой

75 мин. "горчичник" Канте за грубую игру в центре поля

75 мин. пошел открытый футбол. Бундестиму терять нечего

74 мин. АААААА!!! Киммих наносит класснейший удар с левой из-за штрафной. Мяч от стойки ушел за пределы поля

72 мин. Погба слева накрутил Хеведеса и подал во вратарскую. Нойер в борьбе с Жиру выбил мяч... на ногу Гризманну, а тот ударом в касание поразил пустые ворота

72 мин. ГООООООООООООООООООООООООООЛЛЛЛЛ — Гризманн

71 мин. первая замена у французов: Пайе — Канте

70 мин. штрафной у немцев. 30 метров до ворот. Решили разыграть. Пошла подача в штрафную. Бил головой Хектор, но очень неточно. Еще и в офсайде был защитник

69 мин. Кошельны падает сам при подаче с углового, а Риццоли фиксирует фол у Мюллера, которого не было. Итальянский судья творит свои дела

68 мин. Киммих выполняет острейшую передачу справа. Киммих бьет — мяч от защитника ушел на угловой. Будет угловой

67 мин. контратака французов закончилась слабым ударом Пайе — мяч летит в руки Нойеру

67 мин. вторая замена у немцев: Гетце меняет Джана

64 мин. давит Бундестим, но все атаки легко читаются обороной. А время то идет

61 мин. вместо Боатенга выходит Шкодран Мустафи

59 мин. Боатенг на газоне в центре поля. Не может продолжить игру. Выбивая мяч, Жером потянул ногу

58 мин. Хектор пытался в касание замкнуть подачу из глубины поля, но не успел к мячу

57 мин. немцы атакуют большими силами, а французы обороняются всей командой

52 мин. слева опасную подачу на ближнюю стойку выполнил Хектор, но Ютмити опередил Мюллера

52 мин. очень грубо сыграли против Дракслера. Где желтая, господин арбитр???!!!

50 мин. желтая Дракслеру за удар по ногам Сиссоко. Французский полузащитник повалялся на газоне от "боли", но только Риццоли отошел, как поднялся на ноги и побежал

47 мин. Пайе выполнил подачу с углового. Мяч перелетел штрафную немцев

47 мин. и еще одна контра французов. Гризманн бьет с левого угла. Мяч от ноги защитника ушел на угловой

46 мин. ухх! Французы убежали в контратаку. Жиру врывается в штрафную, пробрасывает мяч мимо Киммиха и бьет. Но мяч блокирует Боатенг

46 мин. немцы разыграли мяч в центре поля

23:03. возвращаемся на "Велодром". В перерыве без замен

45+3 мин. звучит свисток на перерыв

45+2 мин. судейский произвол на Евро-2016 — тянут французов за уши. Пенальти на Швайнштайгере не дали, а когда было касание мяча к пальцу — тут же пенальти. Браво, Коллина!!! Браво УЕФА!!!!!

45+2 мин. лучший бомбардир Евро-2016 пробил в левый угол, а Нойер летит в правый

45+2 мин. ГООООООООООООООООООООООООООЛЛЛЛЛ — Гризманн

45+1 мин. также предупрежден Озил за разговоры с арбитром

45+1 мин. еще и желтая Швайнштайгеру

45+1 мин. пенальти поставил Риццоли за игру рукой Швайнштайгера в своей штрафной

43 мин. Эвра заигрался в атаке и был вынужден сбивать Киммиха, за что и получил желтую

42 мин. ААААА!! Жиру убежал один на один. Готовился бить с левой, но Хеведес успел догнать форварда и заблокировать удар

42 мин. Гризманн бил с левого угла вратарской — попал в сетку, но с внешней стороны

40 мин. Эхх Риццоли, Риццоли. Погба откровенно завалил Швайнштайгера в штрафной после подачи с углового. Но итальянский арбитр не захотел ставить пенальти в ворота французов. А повод то был

39 мин. Мюллер получил мяч на правом фланге, пробежал метров 20 к штрафной и нанес удар низом. Мяч перед собой отбил Льорис, но добить некому

38 мин. у французов был шанс на контратаку, но Гризманн передержал мяч

37 мин. до ворот 28 метров. У мяча Погба. Поль бьет — мяч летит в левый угол, но Нойер спокойно его ловит

36 мин. первая желтая — Риццоли предупредил Джана за фол против Гризманна

29 мин. издали попытался счастья Кроос, но попал мячом в защитника

26 мин. Швайнштайгер опасно пробивал из-за пределов штрафной под перекладину ворот, но Льорис в красивом прыжке среагировал.

24 мин. Французы заработали право на штрафной в 30 метрах от ворот Нойера, Пайе пробил на исполнение, над стенкой, но прямо в руки Нойеру. 

21 мин. В штрафную французов врывался Кроос, но, в борьбе с защитниками, упал на газон. Арбитр молчит.

19 мин. Германия перехватила инициативу, теперь вынуждены обороняться французы. 

16 мин. Еще один удар Мюллера — немецкий нападающий вышел на ударную позицию на линии штрафной и пробил точно в руки вратарю Франции. 

15 мин. Снова Мюллер прообивал "на исполнение" точно в угол ворот с линии штрафной, Льорис в красивом прыжке отбил удар. 

10 мин. Первый опасный момент у ворот Льориса — после прострела в центр на линию штрафной пытался пробить Мюллер, но мяч прошел мимо цели. 

7 мин. Гризманн нанес первый удар с линии штрафной — Нойер в красивом прыжке ликвидировал угрозу.

5 мин. В начале матча ощутимым преимуществом владеют французы, а немцы вынуждены обороняться.

2 мин. Во время быстрой атаки сборной Франции мяч попал в руку Эмре Джану, но арбитр не решился поставить пенальти.

22:02 матч начался

21:57 звучат гимны стран-участниц финала

20:53. стартовый состав Бундестим (фото — Facebook)

20:47. стартовый состав французов (фото — Facebook)

20:45. французские болельщики (фото — uefa.com)

18:33. немецкие болельщики мечтают о финале. В Марселе сегодня внушительный десант из Германии (фото — Twitter)

18:27. форма команд на сегодняшний матч (фото — Facebook)

18:15. на великих турнирах Германия и Франция ранее пересекались 4 раза. Все матчи состоялись в рамках чемпионатов мира. В матче за третье место на ЧМ-1958 Франция победила со счетом 6:3. Затем побеждали только немцы — в полуфинале ЧМ-1982 Бундестим победил по пенальти (3:3, по пенальти 5:4), в полуфинале ЧМ-1986 немцы выиграли со счетом 2:0, а в четвертьфинале ЧМ-2014 Германия выиграла со счетом 1:0. В рамках чемпионатов Европы немцы и французы ранее не встречались

14:55. Дидье Дешам, главный тренер французов: "Немцы всегда стараются диктовать соперникам свои условия, делают ставку на владение мячом. Но мы не можем себе позволить просто обороняться и ждать шанса для контратаки. Нам необходимо играть в свой футбол и по максимуму использовать свои сильные стороны. Германия — чемпион мира. И в первых пяти матчах Евро-2016 она произвела очень хорошее впечатление. В этом матче нам необходимо забивать. Для этого придется сломить сопротивление не только Мануэля Нойера, пускай это отличный вратарь, но и всей немецкой обороны. Сила Германии как раз в том, что она не пропускает, при этом постоянно атакуя. В поединке с Италией было видно, как быстро они перестраиваются при потере мяча и снова возвращают его себе... Игрокам надо верить в себя, а мы, в том числе и болельщики, должны поддержать их. Мы встречаемся с лучшей командой мира и намерены выложиться полностью. Мы не можем сравниться с немцами по числу выигранных трофеев, но у нас хорошая команда, которая умеет атаковать и забивать. Мы должны создать проблемы сопернику. За нас будут трибуны, мы нуждаемся в них. В матче обязательно настанут моменты, когда нам придется тяжело. Нас поддерживает вся страна, и здесь это чувствуется особенно сильно. Мы всегда были уверены в себе и горели желанием играть. В итоге мы оказались здесь. Путь плавным не был, но игроки сделали все для того, чтобы добраться до этой точки. Но теперь нам предстоит совсем другое испытание. Германия — лучшая сборная на этом Евро, и если мы сыграем с ней достойно, то войдем в историю".

14:51. Лев вспомнил матч двухлетней давности, когда Германия обыграла французов в четвертьфинале ЧМ в Бразилии: "Матч будет похож на тот, что мы сыграли на ЧМ-2014. Франция — команда очень высокого уровня. В этом матче будет больше голевых моментов, чем в нашем поединке с Италией. У любой команды есть слабые стороны, никто не совершенен. Их прошлый матч против Исландии был впечатляющим, но я думаю, что мы все равно увидели кое-какие недостатки — для нас будет очень важно ими воспользоваться. При этом я не думаю, что мы фавориты. Мы играем не против команды, а против целой страны. После победы над Исландией французы очень уверены в себе. Они на пике после выигрыша у исландцев, но статус фаворита ничего не значит сейчас. Кто сыграет лучше, кто создаст больше моментов и кто использует больше из них, тот и победит".

14:51. Главный тренер Бундестим Йоахим Лев: "В атаке Франция играет очень разнообразно, создает огромное давление — не только в штрафной, но и в центре поля, где выделяются Поль Погба и Блез Матюйди. Они используют свои моменты, сразу три нападающих французской сборной возглавляют список лучших бомбардиров. Французы атакуют очень агрессивно, это хозяева, и нападение этой команды до сих пор действовало очень хорошо. Пока что это был главный козырь французов. Мы должны играть как одна команда и помогать друг другу. Нужно действовать компактно в обороне. Если мы предоставим им пространство, соперники будут действовать очень быстро и динамично, тогда у нас будут большие проблемы".

14:51. команды подошли в игре в разных кондициях. У французов все в строю, а Йоахим Лев не может рассчитывать на троих как минимум. Из-за перебора желтых карточек игру пропустит центрбек Хуммельс. Из-за травм не сыграют опорник Хедира и форвард Гомес. Также под вопросом участие в матче Швайнштайгера

11:45. Уважаемые футбольные болельщики и читатели ONLINE.UA! Рады приветствовать вас на странице онлайн-трансляции полуфинального матча Евро-2016 Германия — Италия!

Котировки букмекеров

Котировки на основное время матча: победа Германии — 2,85; ничья — 3,10; победа Франции — 2,80.

Котировки на выход в финал: проход Германии — 1,93; проход Франции — 1,87.

История противостояний

13.11.2015 Франция - Германия — 2:0 (ТМ) 04.07.2014 Франция - Германия — 0:1 (1/4 финала ЧМ-2014)

06.02.2013 Франция - Германия — 1:2 (ТМ) 29.02.2012 Германия - Франция — 1:2 (ТМ) 12.11.2005 Франция - Германия — 0:0 (ТМ) 15.11.2003 Германия - Франция — 0:3 (ТМ) 27.02.2001 Франция - Германия — 1:0 (ТМ) 01.06.1996 Германия - Франция — 0:1 (ТМ)

28.02.1990 Франция - ФРГ — 2:1 (ТМ) 12.08.1987 ФРГ - Франция — 2:1 (ТМ) 25.06.1986 Франция - ФРГ — 0:2 (1/2 финала ЧМ-1986) 18.04.1984 Франция - ФРГ — 1:0 (ТМ) 1984 ФРГ - Франция — 0:1 (отбор на ОИ-1984) 1984 Франция - ФРГ — 1:1 (отбор на ОИ-1984) 08.07.1982 ФРГ - Франция — 3:3, по пенальти 5:4 (1/2 финала ЧМ-1982) 19.11.1980 ФРГ - Франция — 4:1 (ТМ) 23.02.1977 Франция - ФРГ — 1:0 (ТМ) 13.10.1973 ФРГ - Франция — 2:1 (ТМ) 25.09.1968 Франция - ФРГ — 1:1 (ТМ) 27.09.1967 ФРГ - Франция — 5:1 (ТМ) 24.10.1962 ФРГ - Франция — 2:2 (ТМ) 26.10.1958 Франция - ФРГ — 2:2 (ТМ) 28.06.1958 Франция - ФРГ — 6:3 (матч за 3 место на ЧМ-1958) 16.10.1954 ФРГ - Франция — 1:3 (ТМ) 05.10.1952 Франция - ФРГ — 3:1 (ТМ) 21.03.1937 Германия - Франция — 4:0 (ТМ) 17.03.1935 Франция - Германия — 1:3 (ТМ) 19.03.1933 Германия - Франция — 3:3 (ТМ) 15.03.1931 Франция - Германия — 1:0 (ТМ)

news.online.ua

Скачать торрент Футбол. Чемпионат Европы 2016. 1/2 финала. Германия - Франция [Футбол 1 HD] [07.07] (2016) HDTVRip 720p

Чемпионат Европы 2016 1/2 финалаГермания - ФранцияВид спорта: ФутболУчастники: Германия - ФранцияКомментарий: Русский

Описание: 07 июля 2016, четверг. 22:00 МСК 1/2 финала Стадион: Велодром (Марсель, Франция) , 64 078 зрителей (95 % при вместимости 67 394) Главный судья: Никола Риццоли (Болонья, Италия) Ассистент: Эленито Ди Либераторе (Италия) Ассистент: Мауро Тонолини (Италия) Резервный: Дамир Скомина (Копер, Словения)

Автор записи: Mr. Drax

Качество: HDTVRipФормат видео: MKVВидео: H.264, 1280x720, 25 fps, 3000 KbpsАудио: AC3, 48.0 KHz, 2 ch stereo, 192 kbps

Продолжительность

01:49:57

Составы команд

Media Info

Полное имя : H:FootballEURO 2016Euro 2016.1-2 finals.Germany - France.07.07.2016.HDTVRip720p.mkv Формат : Matroska Версия формата : Version 4 / Version 2 Размер файла : 2,46 Гбайт Продолжительность : 1 ч. 49 м. Общий поток : 3201 Кбит/сек Программа кодирования : Lavf56.0.100 Библиотека кодирования : Lavf56.0.100

Видео Идентификатор : 1 Формат : AVC Формат/Информация : Advanced Video Codec Профиль формата : [email protected] Параметр CABAC формата : Да Параметр ReFrames формата : 4 кадра Идентификатор кодека : V_MPEG4/ISO/AVC Продолжительность : 1 ч. 49 м. Битрейт : 3000 Кбит/сек Ширина : 1280 пикселей Высота : 720 пикселей Соотношение сторон : 16:9 Режим частоты кадров : Постоянный Частота кадров : 25,000 кадров/сек Цветовое пространство : YUV Субдискретизация насыщенности : 4:2:0 Битовая глубина : 8 бит Тип развёртки : Прогрессивная Бит/(Пиксели*Кадры) : 0.130 Размер потока : 2,26 Гбайт (92%) Библиотека кодирования : x264 core 142 r2453 ea0ca51 Настройки программы : cabac=1 / ref=3 / deblock=1:0:0 / analyse=0x3:0x113 / me=hex / subme=7 / psy=1 / psy_rd=1.00:0.00 / mixed_ref=1 / me_range=16 / chroma_me=1 / trellis=1 / 8x8dct=1 / cqm=0 / deadzone=21,11 / fast_pskip=1 / chroma_qp_offset=-2 / threads=12 / lookahead_threads=2 / sliced_threads=0 / nr=0 / decimate=1 / interlaced=0 / bluray_compat=0 / constrained_intra=0 / bframes=3 / b_pyramid=2 / b_adapt=1 / b_bias=0 / direct=1 / weightb=1 / open_gop=0 / weightp=2 / keyint=250 / keyint_min=25 / scenecut=40 / intra_refresh=0 / rc_lookahead=40 / rc=abr / mbtree=1 / bitrate=3000 / ratetol=1.0 / qcomp=0.60 / qpmin=0 / qpmax=69 / qpstep=4 / ip_ratio=1.40 / aq=1:1.00 Default : Да Forced : Нет

Аудио Идентификатор : 2 Формат : AC-3 Формат/Информация : Audio Coding 3 Расширение режима : CM (complete main) Параметр Endianness формата : Big Идентификатор кодека : A_AC3 Продолжительность : 1 ч. 49 м. Вид битрейта : Постоянный Битрейт : 192 Кбит/сек Каналы : 2 канала Расположение каналов : Front: L R Частота : 48,0 КГц Битовая глубина : 32 бит Метод сжатия : С потерями Задержка видео : -957 мс. Размер потока : 151 Мбайт (6%) Библиотека кодирования : Lavc56.0.100 ac3 Язык : Russian Default : Да Forced : Нет

krutor.org

0:2 (7 2016). / 2016 /

855

0

+39342

0

Frost 1k4823505 | +175217    3281    11 
: 8 2016 04:27: : , 2016, , (77.76 )

  • . 2016. 1/2 -
  • . 2016. C. 1- . -
  • 1:1 (6:5 .) (2 2016).
  • - 0-0 (16 2016).
  • . 2016. 1/4 -
  • - 0-1 (21 2016).
  • 5:2 (3 2016).
  • . 2016. 1/4 -
  • . 2016. C. 2- . -
  • -  96
  • / / Borg/McEnroe -  5
  • / Thoroughbred -  0
  • . -  62
  • / Renegades -  73
  • 4: / Diary of a Wimpy Kid: The Long Haul -  0
* {width: 85px;}]]>

:

258

. 7 |
  • violator77  •  22:02 09.07.2016

    0

  • 99474  ○  21:57 09.07.2016

    0

    !!!!

  • Max Fit  •  12:56 08.07.2016

    0

    , (

  • 0000000  ○  12:47 08.07.2016

    0

    ""!

  • Edikeo  ○  10:53 08.07.2016

    +12

    , ˸ . -_-

  •   ○  10:48 08.07.2016

    +12

    !!!!!!

  • freealine15  ○  08:55 08.07.2016

    +5

    ) , ) )

hlamer.ru


Смотрите также